Loading...
Error

Молчание ягнят / The Silence of the Lambs (Джонатан Демме / Jonathan Demme) [1991 г., триллер, детектив, криминал, BDRip-AVC] Dub + Original (Eng) + Sub (Rus, Ukr, Eng) Ripodelnia

Статистика раздачи
Размер:  2.91 GB   |    Зарегистрирован:  3 года 11 месяцев   |    Скачан:  15 раз

Полного источника не было: 19 часов

Сидов:  0  |  0 KB/s  ]   Личеров:  1  |  424 KB/s  ]

* - сиды/пиры с внешних источников

   
 
Автор Сообщение

Ripodelnia Пол:Муж

24-Фев-2018 13:17

Молчание ягнят / The Silence of the Lambs


Год выпуска: 1991
Жанр: триллер, детектив, криминал
Страна: США
Режиссер: Джонатан Демме / Jonathan Demme
В ролях: Джоди Фостер, Энтони Хопкинс, Скотт Гленн, Энтони Хилд, Тед Левайн, Фрэнки Фэйзон, Кэйси Леммонс, Брук Смит, Пол Лэзар, Дэн Батлер
Сюжет фильма:
Психопат похищает и убивает молодых женщин по всему Среднему Западу Америки. ФБР, уверенное в том, что все преступления совершены одним и тем же человеком, поручает агенту Клариссе Старлинг встретиться с заключенным-маньяком, который мог бы объяснить следствию психологические мотивы серийного убийцы и тем самым вывести на его след. Заключенный, доктор психиатрии Ганнибал Лектер, отбывает наказание за убийства и каннибализм. Он согласен помочь Клариссе лишь в том случае, если она попотчует его больное воображение подробностями своей сложной личной жизни. Такие двусмысленные отношения не только порождают в душе Клариссы внутренний конфликт, но и сталкивают ее лицом к лицу с помешанным до гениальности убийцей. Воплощение дьявола настолько сильно, что ей может не хватить мужества и стойкости, чтобы остановить его.

  • Мировая премьера: 30 января 1991

   
Качество видео: BDRip-AVC (исходник: Criterion Collection Remastered BD - Silence.of.the.Lambs.1991.REMASTERED.1080p.BluRay.AVC.DTS-HD.MA.5.1-CiNEMATiC)

Продолжительность: 01:58:47
Формат: mkv
Видео: x264, 1024x552, 2545 kbps
Аудио #1: русский, дублированный [лицензия, BluRay CEE], AC3 5.1, 448 kbps
Аудио #2: английский, оригинал, AC3 5.1, 448 kbps

Аудио #3: русский, многоголосый закадровый [Видеосервис], AC3 5.1, 448 kbps (отдельно)
Аудио #4: русский, многоголосый закадровый [Киномания], AC3 5.1, 448 kbps (отдельно)
Аудио #5: русский, одноголосый закадровый [Михалев], AC3 5.1, 448 kbps (отдельно)
Аудио #6: русский, одноголосый закадровый [Сербин], AC3 5.1, 448 kbps (отдельно)
Аудио #7: русский, одноголосый закадровый [Гаврилов], AC3 5.1, 448 kbps (отдельно)
Аудио #8: русский, одноголосый закадровый [Живов], AC3 5.1, 448 kbps (отдельно)
Аудио #9: русский, одноголосый закадровый [Либергал], AC3 5.1, 448 kbps (отдельно)

Субтитры #1: вшитые отключаемые, S_TEXT/UTF8, русский
Субтитры #2: вшитые отключаемые, S_TEXT/UTF8, украинский
Субтитры #3: вшитые отключаемые, S_TEXT/UTF8, английский

Код:

General
Complete name                    : D:\out.mkv
Format                           : Matroska
File size                        : 2.91 GiB
Duration                         : 1h 58mn
Overall bit rate                 : 3 512 Kbps
Encoded date                     : UTC 2018-02-24 05:41:52
Writing application              : mkvmerge v20.0.0 ('I Am The Sun') 64-bit
Writing library                  : libebml v1.3.5 + libmatroska v1.4.8

Video
ID                               : 1
Format                           : AVC
Format/Info                      : Advanced Video Codec
Format profile                   : [email protected]
Format settings, CABAC           : Yes
Format settings, ReFrames        : 14 frames
Muxing mode                      : Container [email protected]
Codec ID                         : V_MPEG4/ISO/AVC
Duration                         : 1h 58mn
Bit rate                         : 2 546 Kbps
Nominal bit rate                 : 2 614 Kbps
Width                            : 1 024 pixels
Height                           : 552 pixels
Display aspect ratio             : 1.855
Frame rate                       : 23.976 fps
Resolution                       : 24 bits
Colorimetry                      : 4:2:0
Scan type                        : Progressive
Bits/(Pixel*Frame)               : 0.188
Stream size                      : 2.11 GiB (72%)
Title                            : Ripodelnia
Writing library                  : x264 core 155 r2901 7d0ff22
Encoding settings                : cabac=1 / ref=14 / deblock=1:-1:-1 / analyse=0x3:0x133 / me=umh / subme=11 / psy=1 / psy_rd=1.00:0.10 / mixed_ref=1 / me_range=48 / chroma_me=1 / trellis=2 / 8x8dct=1 / cqm=0 / deadzone=21,11 / fast_pskip=0 / chroma_qp_offset=-3 / threads=4 / lookahead_threads=1 / sliced_threads=0 / nr=0 / decimate=0 / interlaced=0 / bluray_compat=0 / constrained_intra=0 / bframes=16 / b_pyramid=2 / b_adapt=2 / b_bias=0 / direct=3 / weightb=1 / open_gop=0 / weightp=2 / keyint=240 / keyint_min=23 / scenecut=40 / intra_refresh=0 / rc_lookahead=60 / rc=2pass / mbtree=0 / bitrate=2614 / ratetol=1.0 / qcomp=0.70 / qpmin=0 / qpmax=69 / qpstep=4 / cplxblur=20.0 / qblur=0.5 / vbv_maxrate=50000 / vbv_bufsize=62500 / nal_hrd=none / filler=0 / ip_ratio=1.35 / pb_ratio=1.25 / aq=2:0.75

Audio #1
ID                               : 2
Format                           : AC-3
Format/Info                      : Audio Coding 3
Codec ID                         : A_AC3
Duration                         : 1h 58mn
Bit rate mode                    : Constant
Bit rate                         : 448 Kbps
Channel(s)                       : 6 channels
Channel positions                : Front: L C R, Surround: L R, LFE
Sampling rate                    : 48.0 KHz
Stream size                      : 381 MiB (13%)
Title                            : Russian (Dub, BD CEE)
Language                         : Russian

Audio #2
ID                               : 3
Format                           : AC-3
Format/Info                      : Audio Coding 3
Codec ID                         : A_AC3
Duration                         : 1h 58mn
Bit rate mode                    : Constant
Bit rate                         : 448 Kbps
Channel(s)                       : 6 channels
Channel positions                : Front: L C R, Surround: L R, LFE
Sampling rate                    : 48.0 KHz
Stream size                      : 381 MiB (13%)
Title                            : English (Original)
Language                         : English

Text #1
ID                               : 4
Format                           : UTF-8
Codec ID                         : S_TEXT/UTF8
Codec ID/Info                    : UTF-8 Plain Text
Title                            : Russian (full, R5)
Language                         : Russian

Text #2
ID                               : 5
Format                           : UTF-8
Codec ID                         : S_TEXT/UTF8
Codec ID/Info                    : UTF-8 Plain Text
Title                            : Ukrainian (full)
Language                         : Ukrainian

Text #3
ID                               : 6
Format                           : UTF-8
Codec ID                         : S_TEXT/UTF8
Codec ID/Info                    : UTF-8 Plain Text
Title                            : English (full)
Language                         : English

Релиз группы: Ripodelnia

При создании рипа ставилась задача сохранить оригинальную передачу цветов и частично зерно пленки, насколько это возможно при таком битрейте. Получилось или нет - судите сами, по рукам не бейте только. На подходе другие релизы из коллекции "Бессмертное кино".


pic pic pic
Для увеличения картинки щелкните мышкой по превью

Этот торрент недоступен для скачивания без регистрации, однако доступен по публичной magnet-ссылке (источники с публичных трекеров). Перед использованием ссылки прочтите, пожалуйста Пользовательское соглашение, а также как можно дольше оставайтесь на раздаче! Для того, чтобы скачать сам торрент-файл (который видит больше источников), а также для того, чтобы поблагодарить релизера, вам необходимо зарегистрироваться. Если регистрироваться лень - вы можете также попробовать скачать релиз по нашим партнерским ссылкам ниже. Кроме того, зарегистрированным пользователям не показывается всплывающая реклама при скачивании.

[underverse.me].t97916.torrent
Трекер: Зарегистрирован   [ 24.02.2018 13:17 ]  

Статус: проверено (by Паукан at 24.02.2018 13:23)
Поблагодарили: пока никто не поблагодарил...
Тип торрента: публичный - доступные источники с открытых трекеров: 
Размер: 2.91 GB (занимает 2/3 DVDR, для записи нужно 1 болванка DVDR/RW)
 
 
Похожие темы
Форум Тема Автор Торрент Отв. Посл. сооб.
Зарубежное кино [DVDRip, Low-Res HDRip, и т.д.] Молчание ягнят / The Silence of the Lambs (Джонатан Демме / Jonathan Demme) [1990 г., триллер, криминал, детектив, драма, BDRip] Dub 90ytr90
3 | 0

0 | 4405

20

15.12.2013 19:23

Зарубежное кино [DVD / HDDVD / BD / Remux] Молчание ягнят / The Silence of the Lambs (Джонатан Демме / Jonathan Demme) [1991, психологический триллер, Blu-ray] uzi2009
1 | 0

0 | 2836

6

13.04.2014 09:46

Зарубежное кино [HDDVDRip / BDRip / WEB-DL / HDTV 1080/720р] Молчание ягнят / The Silence Of The Lambs (Джонатан Демме) [1991 г., Триллер, криминал, детектив, BDRip 1080p] Dub + 4xMVO (Позитив, Видеосервис, Киномания, НТВ+) + 4хAVO (Либергал, Михалев, Сербин,... Evgenii82
0 | 1

0 | 183

2

16.09.2021 06:45


Яндекс.Метрика powered by Sphinx


В Н И М А Н И Е
Сайт не распространяет и не хранит электронные версии произведений, а лишь бесплатно и без коммерческой выгоды (не требуя взамен платы,
SMS и т.д.) предоставляет доступ к создаваемому пользователями каталогу ссылок на торрент-файлы, которые содержат только списки хеш-сумм.
Убедительная просьба с жалобами обращаться напрямую к пользователю, разместившему торрент файл.

Вверх