Loading...
Error

Убойная стрижка / Deadly Cuts (Рэйчел Кэри) [2021 г., комедия, WEB-DLRip] MVO (Тан Туки продакшн)

Статистика раздачи
Размер:  1.45 GB   |    Зарегистрирован:  1 месяц 26 дней   |    Скачан:  4 раза

Полного источника не было: 1 месяц 13 дней

Сидов:  0  |  0 KB/s  ]   Личеров:  0  |  0 KB/s  ]

* - сиды/пиры с внешних источников

   
 
Автор Сообщение

makkol Пол:Муж

27-Ноя-2021 21:28

Убойная стрижка / Deadly Cuts


Год выпуска: 2021
Жанр: комедия
Производство: Ирландия [v]
Режиссер: Рэйчел Кэри
В ролях: Анджелин Болл, Эрика Роу, Лорен Ларкин, Шона Хиггинс, Эйдан МакАрдл, Виктория Смёрфит, Полин Маклин, Сорча Фахи, Томмас Кэйн-Бирн, Рори Нолан
Сюжет фильма:
Черная комедия, действие которой происходит в рабочем салоне-парикмахерской в Дублине, где стилисты становятся случайными дружинниками и героями сообщества, сражаясь с членами банды и джентрификаторами, угрожающими их сообществу.

  • Мировая премьера: 14 марта 2021


Качество видео: WEB-DLRip

Продолжительность: 01:26:14
Формат: AVI
Видео: XviD, 720x304 (2.35:1), 23.976 fps, 2147 kbps
Аудио: русский, профессиональный многоголосый закадровый (Тан Туки продакшн), AC3 2.0, 48 kHz, 256 kbps

Код:

Общее
Полное имя                               : Deadly.cuts.2021.WEB-DLRip.avi
Формат                                   : AVI
Формат/Информация                        : Audio Video Interleave
Размер файла                             : 1,45 Гбайт
Продолжительность                        : 1 ч. 26 м.
Общий поток                              : 2 413 Кбит/сек
Программа кодирования                    : VirtualDubMod 1.5.10.3 | www.virtualdub-fr.org || (build 2550/release)
Библиотека кодирования                   : VirtualDubMod build 2550/release

Видео
Идентификатор                            : 0
Формат                                   : MPEG-4 Visual
Профиль формата                          : Advanced [email protected]
Настройки формата                        : BVOP1 / Custom Matrix
Параметр BVOP формата                    : 1
Параметр QPel формата                    : Нет
Параметр GMC формата                     : Без точки перехода
Параметр матрицы формата                 : Выборочная
Идентификатор кодека                     : XVID
Идентификатор кодека/Подсказка           : XviD
Продолжительность                        : 1 ч. 26 м.
Битрейт                                  : 2 147 Кбит/сек
Ширина                                   : 720 пикселей
Высота                                   : 304 пикселя
Соотношение сторон                       : 2,35:1
Частота кадров                           : 23,976 (24000/1001) кадра/сек
Цветовое пространство                    : YUV
Субдискретизация насыщенности            : 4:2:0
Битовая глубина                          : 8 бит
Тип развёртки                            : Прогрессивная
Метод сжатия                             : С потерями
Бит/(Пиксели*Кадры)                      : 0.409
Размер потока                            : 1,29 Гбайт (89%)
Библиотека кодирования                   : XviD 73

Аудио
Идентификатор                            : 1
Формат                                   : AC-3
Формат/Информация                        : Audio Coding 3
Коммерческое название                    : Dolby Digital
Идентификатор кодека                     : 2000
Продолжительность                        : 1 ч. 26 м.
Вид битрейта                             : Постоянный
Битрейт                                  : 256 Кбит/сек
Каналы                                   : 2 канала
Channel layout                           : L R
Частота                                  : 48,0 КГц
Частота кадров                           : 31,250 кадров/сек (1536 SPF)
Метод сжатия                             : С потерями
Размер потока                            : 158 Мбайт (11%)
Выравнивание                             : Разделение по промежуткам
Продолжительность промежутка             : 42  мс. (1,00 видеокадр)
Время предзагрузки промежутка            : 500  мс.
Service kind                             : Complete Main

Этот торрент недоступен для скачивания без регистрации, однако доступен по публичной magnet-ссылке (источники с публичных трекеров). Перед использованием ссылки прочтите, пожалуйста Пользовательское соглашение, а также как можно дольше оставайтесь на раздаче! Для того, чтобы скачать сам торрент-файл (который видит больше источников), а также для того, чтобы поблагодарить релизера, вам необходимо зарегистрироваться. Если регистрироваться лень - вы можете также попробовать скачать релиз по нашим партнерским ссылкам ниже. Кроме того, зарегистрированным пользователям не показывается всплывающая реклама при скачивании.

[underver.se].t227980.torrent
Трекер: Зарегистрирован   [ 27.11.2021 21:28 ]  

Статус: T временная (by makkol at 27.11.2021 21:28)
Поблагодарили: пока никто не поблагодарил...
Тип торрента: публичный - доступные источники с открытых трекеров: 
Размер: 1.45 GB (занимает 1/3 DVDR, для записи нужно 1 болванка DVDR/RW)
 
 
Похожие темы
Форум Тема Автор Торрент Отв. Посл. сооб.
T Зарубежное кино [DVDRip, Low-Res HDRip, и т.д.] Убойная стрижка / Легенда о Барни Томсоне / The Legend of Barney Thomson (Роберт Карлайл / Robert Carlyle) [2015 г., комедия, криминал, HDRip] Dub (iTunes) 90ytr90
1 | 1

0 | 1146

5

13.12.2016 19:33

Зарубежное кино [DVDRip, Low-Res HDRip, и т.д.] Убойная стрижка / Легенда о Барни Томсоне / The Legend of Barney Thomson (Роберт Карлайл / Robert Carlyle) [2015 г., комедия, криминал, BDRip] AVO (Чадов, без цензуры) 90ytr90
0 | 1

0 | 1046

2

13.12.2016 19:23

T Зарубежное кино [DVDRip, Low-Res HDRip, и т.д.] Убойная стрижка / Легенда о Барни Томсоне / The Legend of Barney Thomson (Роберт Карлайл) [2015 г., комедия, криминал, HDRip] Dub (iTunes) makkol
0 | 1

0 | 1011

18

20.07.2016 12:10

T Зарубежное кино [HDDVDRip / BDRip / WEB-DL / HDTV 1080/720р] Убойная стрижка / Легенда о Барни Томсоне / The Legend of Barney Thomson (Роберт Карлайл / Robert Carlyle) [2015 г., комедия, криминал, BDRip 720p] Dub (iTunes) + AVO (Чадов) + Original (Eng) + Sub... 90ytr90
0 | 1

0 | 852

5

05.12.2016 18:39

T Зарубежное кино [HDDVDRip / BDRip / WEB-DL / HDTV 1080/720р] Убойная стрижка / Легенда о Барни Томсоне / The Legend of Barney Thomson (Роберт Карлайл / Robert Carlyle) [2015 г., комедия, криминал, BDRip 720p] Dub (iTunes) + Original (Eng) 90ytr90
1 | 0

0 | 1077

3

13.12.2016 19:29

T Зарубежное кино [HDDVDRip / BDRip / WEB-DL / HDTV 1080/720р] Убойная стрижка / Легенда о Барни Томсоне / The Legend of Barney Thomson (Роберт Карлайл) [2015 г., комедия, криминал, BDRip 1080p] Dub (iTunes) + Original makkol
1 | 0

0 | 1259

6

23.07.2016 22:33

T Зарубежное кино [HDDVDRip / BDRip / WEB-DL / HDTV 1080/720р] Убойная стрижка / Deadly Cuts (Рэйчел Кэри) [2021 г., комедия, WEB-DL 1080p] MVO (Тан Туки продакшн) makkol
10 | 0

0 | 263

7

27.11.2021 21:32


Яндекс.Метрика powered by Sphinx


В Н И М А Н И Е
Сайт не распространяет и не хранит электронные версии произведений, а лишь бесплатно и без коммерческой выгоды (не требуя взамен платы,
SMS и т.д.) предоставляет доступ к создаваемому пользователями каталогу ссылок на торрент-файлы, которые содержат только списки хеш-сумм.
Убедительная просьба с жалобами обращаться напрямую к пользователю, разместившему торрент файл.

Вверх