Loading...
Error

Не уходи / Don't Move / Non ti muovere (Серджо Кастеллитто) [2004 г., драма, мелодрама, экранизация, WEB-DL 1080p] MVO + Sub (Rus)

Статистика раздачи
Размер:  11,78 GB   |    Зарегистрирован:  2 дня 10 часов   |    Скачан:  1 раз

Полного источника не было: 12 часов

Сидов:  0  |  0 KB/s  ]   Личеров:  0  |  0 KB/s  ]

* - сиды/пиры с внешних источников

   
 
Автор Сообщение

Renesans Пол:Муж

25-Ноя-2021 10:32

Не уходи / Don't Move / Non ti muovere


Год выпуска: 2004
Жанр: Драма, мелодрама, экранизация
Режиссер-постановщик: Серджо Кастеллитто
Актеры: Пенелопа Крус, Серджо Кастеллитто, Клаудия Джерини, Лина Бернарди, Паола Черимеле, Пьетро Де Силва, Анджела Финоккьяро, Марко Джаллини, Ренато Маркетти, Джанни Музи, Анна Элиза Кордиско, Маргерита Дель Неро, Марит Ниссен

Описание:
Это было безумием — внезапно вспыхнувшая страсть преуспевающего врача и прекрасного семьянина к нищей эмигрантке. Он оказался перед трудным выбором, и после мучительных колебаний чувство долга взяло верх над любовью. Но любовь не прощает предательства. Экранизация по произведению: Маргарет Маццантини.



Страна: Великобритания, Италия, Испания
Студия: Cattleya, Alquimia Cinema S.A., The Producers Films
Продолжительность: 01:57:33
Перевод: Профессиональный многоголосый | Cтудия "Инис"

Кодек: x.264
Качество: WEB-DL 1080p | Non.ti.muovere.2004.1080p.AMZN.WEB-DL.DDP5.1.H.264-CRUD
Видео: MPEG-4 AVC, 13.3 Mбит/с, 1920x1080, 25.000 кадр/с
Аудио #1: Русский (АС3, 6 ch, 384 Кбит/с, 48.0 KHz) Профессиональный (многоголосый, закадровый) Cтудия "Инис"
Аудио #2: Итальянский (E-АС3, 6 ch, 640 Кбит/с, 48.0 KHz)
Субтитры: Русские (Full), английские
Трейлер
Источник: Non.ti.muovere.2004.1080p.AMZN.WEB-DL.DDP5.1.H.264-CRUD
General
Unique ID : 180732203773911208981628203354514170880 (0x87F7C19DF2627E70A8F46CF5EBBAA400)
Complete name : Non.Ti.Muovere.2004.AMZN.WEB-DL.1080p.mkv
Format : Matroska
Format version : Version 4
File size : 11.8 GiB
Duration : 1 h 57 min
Overall bit rate : 14.3 Mb/s
Movie name : Don't Move AKA Non ti muovere (2004)
Encoded date : UTC 2021-11-25 07:16:32
Writing application : mkvmerge v7.1.0 ('Good Love') 64bit built on Jul 27 2014 13:06:55
Writing library : libebml v1.3.0 + libmatroska v1.4.1

Video
ID : 1
Format : AVC
Format/Info : Advanced Video Codec
Format profile : [email protected]
Format settings : CABAC / 4 Ref Frames
Format settings, CABAC : Yes
Format settings, Reference fra : 4 frames
Codec ID : V_MPEG4/ISO/AVC
Duration : 1 h 57 min
Bit rate : 13.3 Mb/s
Width : 1 920 pixels
Height : 1 080 pixels
Display aspect ratio : 16:9
Frame rate mode : Constant
Frame rate : 25.000 FPS
Color space : YUV
Chroma subsampling : 4:2:0
Bit depth : 8 bits
Scan type : Progressive
Bits/(Pixel*Frame) : 0.257
Stream size : 10.9 GiB (93%)
Language : English
Default : Yes
Forced : No
Color range : Limited
Color primaries : BT.709
Transfer characteristics : BT.709
Matrix coefficients : BT.709

Audio #1
ID : 2
Format : AC-3
Format/Info : Audio Coding 3
Commercial name : Dolby Digital
Codec ID : A_AC3
Duration : 1 h 57 min
Bit rate mode : Constant
Bit rate : 384 kb/s
Channel(s) : 6 channels
Channel layout : L R C LFE Ls Rs
Sampling rate : 48.0 kHz
Frame rate : 31.250 FPS (1536 SPF)
Compression mode : Lossy
Stream size : 323 MiB (3%)
Title : MVO | ИНИС
Language : Russian
Service kind : Complete Main
Default : Yes
Forced : No

Audio #2
ID : 3
Format : E-AC-3
Format/Info : Enhanced AC-3
Commercial name : Dolby Digital Plus
Codec ID : A_EAC3
Duration : 1 h 57 min
Bit rate mode : Constant
Bit rate : 640 kb/s
Channel(s) : 6 channels
Channel layout : L R C LFE Ls Rs
Sampling rate : 48.0 kHz
Frame rate : 31.250 FPS (1536 SPF)
Compression mode : Lossy
Stream size : 538 MiB (4%)
Title : E-AC-3 5.1
Language : Italian
Service kind : Complete Main
Default : No
Forced : No

Text #1
ID : 4
Format : UTF-8
Codec ID : S_TEXT/UTF8
Codec ID/Info : UTF-8 Plain Text
Duration : 1 h 52 min
Bit rate : 50 b/s
Count of elements : 797
Stream size : 41.4 KiB (0%)
Title : Russian
Language : Russian
Default : No
Forced : No

Text #2
ID : 5
Format : UTF-8
Codec ID : S_TEXT/UTF8
Codec ID/Info : UTF-8 Plain Text
Duration : 1 h 48 min
Bit rate : 32 b/s
Count of elements : 813
Stream size : 25.7 KiB (0%)
Title : English
Language : English
Default : No
Forced : No

Menu
00:00:00.000 : en:Chapter 1
00:08:36.560 : en:Chapter 2
00:17:53.840 : en:Chapter 3
00:30:56.000 : en:Chapter 4
00:40:04.160 : en:Chapter 5
00:48:26.360 : en:Chapter 6
00:57:33.440 : en:Chapter 7
01:05:59.160 : en:Chapter 8
01:13:34.361 : en:Chapter 9
01:26:03.480 : en:Chapter 10
01:44:45.560 : en:Chapter 11
01:51:47.080 : en:Chapter 12
pic pic pic pic pic pic pic pic pic pic

Этот торрент недоступен для скачивания без регистрации, однако доступен по публичной magnet-ссылке (источники с публичных трекеров). Перед использованием ссылки прочтите, пожалуйста Пользовательское соглашение, а также как можно дольше оставайтесь на раздаче! Для того, чтобы скачать сам торрент-файл (который видит больше источников), а также для того, чтобы поблагодарить релизера, вам необходимо зарегистрироваться. Если регистрироваться лень - вы можете также попробовать скачать релиз по нашим партнерским ссылкам ниже. Кроме того, зарегистрированным пользователям не показывается всплывающая реклама при скачивании.

[underver.se].t227661.torrent
Трекер: Зарегистрирован   [ 25.11.2021 10:32 ]  

Статус: проверено (by Robbertta at 25.11.2021 12:01)
Поблагодарили: пока никто не поблагодарил...
Тип торрента: публичный - доступные источники с открытых трекеров: 
Размер: 11,78 GB (занимает 2,69 DVDR, для записи нужно 3 болванки DVDR/RW)
 
 
Похожие темы
Форум Тема Автор Торрент Отв. Посл. сооб.
Зарубежное кино [DVDRip, Low-Res HDRip, и т.д.] Не уходи / Don't Go (Дэвид Глисон / David Gleeson) [2018 г., детектив, BDRip] MVO (HDRezka Studio) + Original (Eng) 90ytr90
2 | 1

0 | 539

10

13.03.2019 18:11

Зарубежное кино [DVDRip, Low-Res HDRip, и т.д.] Не уходи / Don't Move / Non ti muovere (Серджо Кастеллитто) [2004 г., драма, мелодрама, экранизация, WEB-DLRip-AVC] MVO + Sub (Rus) Renesans
11 | 0

0 | 57

3

25.11.2021 16:47


Яндекс.Метрика powered by Sphinx


В Н И М А Н И Е
Сайт не распространяет и не хранит электронные версии произведений, а лишь бесплатно и без коммерческой выгоды (не требуя взамен платы,
SMS и т.д.) предоставляет доступ к создаваемому пользователями каталогу ссылок на торрент-файлы, которые содержат только списки хеш-сумм.
Убедительная просьба с жалобами обращаться напрямую к пользователю, разместившему торрент файл.

Вверх