Loading...
Error

Морозко (Александр Роу) [1964 г., сказка, комедия, семейный, BDRemux 1080p]

Статистика раздачи
Размер:  16,92 GB   |    Зарегистрирован:  3 дня   |    Скачан:  3 раза

Полного источника не было: 15 часов

Сидов:  0  |  0 KB/s  ]   Личеров:  1  |  0 KB/s  ]

* - сиды/пиры с внешних источников

   
 
Автор Сообщение

Renesans Пол:Муж

25-Ноя-2021 06:38

Морозко


Год выхода: 1964
Производство: СССР / Киностудия имени М. Горького
Жанр: Сказка, комедия, семейный
Перевод: Не требуется
Продолжительность: 01:22:18

Режиссёр: Александр Роу
В ролях: Наталья Седых, Александр Хвыля, Эдуард Изотов, Инна Чурикова, Павел Павленко, Вера Алтайская, Георгий Милляр, Галина Борисова, Анатолий Кубацкий, Валентин Брылеев

Описание: Жила-была хорошая добрая девушка Настенька. Злая мачеха заставляла её работать, не давая продыху. Однажды она решила избавиться от падчерицы и заставила родного отца Настеньки отвезти её замерзать в зимний лес. В этих же краях жил паренек Иван. Он полюбил Настеньку, да вот только был он большим хвастуном, потому лесной колдун и превратил его в оборотня. И Настеньке, и Ивану пришлось пройти через много испытаний, прежде чем соединить свои судьбы. И помог им в этом добрый волшебник - дедушка Морозко.

Формат: MKV
Качество: BDRemux 1080
Видео: MPEG-4/AVC, 1920x1080, 25.0 Mb/s, 23.976 fps
Аудио 01: AC3, 6 ch, 640 kbps - Русский
Аудио 02: DTS-HD MA, 6 ch, 3 815 kbps - Русский

Субтитры: Русские, английские

General
Unique ID : 279678122657772862098842642266420579366 (0xD2680C102A495D50C5C4AD2E61C28C26)
Complete name : D:Download / Морозко (1964) BDRemux 1080p.mkv
Format : Matroska
Format version : Version 4
File size : 16.9 GiB
Duration : 1 h 22 min
Overall bit rate mode : Variable
Overall bit rate : 29.4 Mb/s
Movie name : Морозко (1964) BDRemux 1080p
Encoded date : UTC 2020-08-17 16:29:16
Writing application : mkvmerge v49.0.0 ('Sick Of Losing Soulmates') 64-bit
Writing library : libebml v1.4.0 + libmatroska v1.6.1
Cover : Yes
Attachments : Cover.jpg

Video
ID : 1
Format : AVC
Format/Info : Advanced Video Codec
Format profile : [email protected]
Format settings : CABAC / 4 Ref Frames
Format settings, CABAC : Yes
Format settings, Reference fra : 4 frames
Codec ID : V_MPEG4/ISO/AVC
Duration : 1 h 22 min
Bit rate mode : Variable
Bit rate : 25.0 Mb/s
Maximum bit rate : 30.0 Mb/s
Width : 1 920 pixels
Height : 1 080 pixels
Display aspect ratio : 16:9
Frame rate mode : Constant
Frame rate : 23.976 (24000/1001) FPS
Standard : NTSC
Color space : YUV
Chroma subsampling : 4:2:0
Bit depth : 8 bits
Scan type : Progressive
Bits/(Pixel*Frame) : 0.502
Stream size : 14.4 GiB (85%)
Title : Морозко
Language : Russian
Default : Yes
Forced : No
Color range : Limited
Color primaries : BT.709
Transfer characteristics : BT.709
Matrix coefficients : BT.709

Audio #1
ID : 2
Format : AC-3
Format/Info : Audio Coding 3
Commercial name : Dolby Digital
Codec ID : A_AC3
Duration : 1 h 22 min
Bit rate mode : Constant
Bit rate : 640 kb/s
Channel(s) : 6 channels
Channel layout : L R C LFE Ls Rs
Sampling rate : 48.0 kHz
Frame rate : 31.250 FPS (1536 SPF)
Compression mode : Lossy
Stream size : 377 MiB (2%)
Title : Оригинал
Language : Russian
Service kind : Complete Main
Default : Yes
Forced : No

Audio #2
ID : 3
Format : DTS XLL
Format/Info : Digital Theater Systems
Commercial name : DTS-HD Master Audio
Codec ID : A_DTS
Duration : 1 h 22 min
Bit rate mode : Variable
Bit rate : 3 815 kb/s
Channel(s) : 6 channels
Channel layout : C L R Ls Rs LFE
Sampling rate : 48.0 kHz
Frame rate : 93.750 FPS (512 SPF)
Bit depth : 24 bits
Compression mode : Lossless
Stream size : 2.19 GiB (13%)
Title : Оригинал
Language : Russian
Default : No
Forced : No

Text #1
ID : 4
Format : UTF-8
Codec ID : S_TEXT/UTF8
Codec ID/Info : UTF-8 Plain Text
Duration : 1 h 19 min
Bit rate : 44 b/s
Count of elements : 541
Stream size : 25.9 KiB (0%)
Title : Full
Language : Russian
Default : No
Forced : No

Text #2
ID : 5
Format : UTF-8
Codec ID : S_TEXT/UTF8
Codec ID/Info : UTF-8 Plain Text
Duration : 1 h 22 min
Bit rate : 28 b/s
Count of elements : 558
Stream size : 17.1 KiB (0%)
Title : Full
Language : English
Default : No
Forced : No

Menu
00:00:00.000 : ru:Титры
00:02:20.140 : ru:До рассвета
00:09:04.377 : ru:Добрый молодец
00:14:52.391 : ru:Старичок-боровичок
00:18:40.369 : ru:Путеводное перышко
00:27:14.007 : ru:Медвежья морда
00:33:38.642 : ru:Макияж
00:35:25.790 : ru:Доброе дело
00:36:15.006 : ru:Сватовство
00:43:09.253 : ru:Ссылка
00:46:17.775 : ru:Баба-Яга
00:50:37.785 : ru:Морозко
00:54:17.087 : ru:Шустрые саночки
01:01:04.411 : ru:Морозильный посох
01:08:29.981 : ru:Марфа и Морозко
01:12:52.952 : ru:Разбойники
01:19:27.429 : ru:Свадьба
pic pic pic pic pic pic pic pic

Этот торрент недоступен для скачивания без регистрации, однако доступен по публичной magnet-ссылке (источники с публичных трекеров). Перед использованием ссылки прочтите, пожалуйста Пользовательское соглашение, а также как можно дольше оставайтесь на раздаче! Для того, чтобы скачать сам торрент-файл (который видит больше источников), а также для того, чтобы поблагодарить релизера, вам необходимо зарегистрироваться. Если регистрироваться лень - вы можете также попробовать скачать релиз по нашим партнерским ссылкам ниже. Кроме того, зарегистрированным пользователям не показывается всплывающая реклама при скачивании.

[underver.se].t227657.torrent
Трекер: Зарегистрирован   [ 25.11.2021 06:38 ]  

Статус: проверено (by Robbertta at 25.11.2021 09:44)
Поблагодарили: пока никто не поблагодарил...
Тип торрента: публичный - доступные источники с открытых трекеров: 
Размер: 16,92 GB (занимает 3,87 DVDR, для записи нужно 4 болванки DVDR/RW)
 
 

Яндекс.Метрика powered by Sphinx


В Н И М А Н И Е
Сайт не распространяет и не хранит электронные версии произведений, а лишь бесплатно и без коммерческой выгоды (не требуя взамен платы,
SMS и т.д.) предоставляет доступ к создаваемому пользователями каталогу ссылок на торрент-файлы, которые содержат только списки хеш-сумм.
Убедительная просьба с жалобами обращаться напрямую к пользователю, разместившему торрент файл.

Вверх