Loading...
Error

Законы границ / Las leyes de la frontera / Laws of the Border (Даниэль Монсон) [2021 г., боевик, триллер, криминал, приключения, WEB-DL-HEVC 1080p] DVO (Pazl Voice) + Sub

Статистика раздачи
Размер:  2,24 GB   |    Зарегистрирован:  13 дней   |    Скачан:  9 раз

Полного источника не было: 1 день 13 часов

Сидов:  0  |  0 KB/s  ]   Личеров:  0  |  0 KB/s  ]

* - сиды/пиры с внешних источников

   
 
Автор Сообщение

makkol Пол:Муж

24-Ноя-2021 22:22

Законы границ / Las leyes de la frontera / Laws of the Border


Год выпуска: 2021
Жанр: боевик, триллер, криминал, приключения
Производство: Испания [Atresmedia Cine, Ikiru Films S.L., Las Leyes De La Frontera, Terraza Films]
Режиссер: Даниэль Монсон
В ролях: Бегонья Варгас, Пеп Тосар, Даниэль Ибаньес, Маркос Руис, Чечу Сальгадо, Гильермо Лашерас, Карлос Овьедо, Синтия Гарсия, Диего Молина Гарау, Ксавьер Мартин, Хорхе Апарисио, Виктор Мануэль Пахарес
Сюжет фильма:
История берет свое начало летом 1978 года. Игнасио Каньясу, замкнутому ученику, 17 лет, он живет в Жироне. Когда он встречает Зарко и Тере, двух молодых преступников из китайского квартала, он оказывается погруженным в непреодолимую череду краж и грабежей, которая будет продолжаться все лето и навсегда изменит его жизнь. Это история лета, когда Игнасио вырос, постоянно нарушая границу между двумя мирами, пересекая грань между добром и злом, между справедливостью и беззаконием...

  • Мировая премьера: 25 сентября 2021


Качество видео: WEB-DL 1080p

Продолжительность: 02:10:36
Формат: MKV
Видео: MPEG-H HEVC, 1920x800 (2.40:1), 24.000 fps, 2001 kbps
Аудио: русский, любительский двухголосый закадровый (Pazl Voice), AC3 5.1, 48 kHz, 448 kbps
Субтитры: русские, английские, украинские вшитые отключаемые

Код:

General
Unique ID : 141958540763770008088202485881610277482 (0x6ACC386F883D39752FAD59675EC9926A)
Complete name : Laws.of.the.Border.2021.NF.WEB-DLRip-HEVC.1080p.mkv
Format : Matroska
Format version : Version 4
File size : 2.24 GiB
Duration : 2 h 10 min
Overall bit rate : 2 452 kb/s
Encoded date : UTC 2021-11-24 13:36:33
Writing application : mkvmerge v63.0.0 ('Everything') 64-bit
Writing library : libebml v1.4.2 + libmatroska v1.6.4
Cover : Yes
Attachments : cover.jpg / cover 2.jpg

Video
ID : 1
Format : HEVC
Format/Info : High Efficiency Video Coding
Format profile : Main [email protected]@Main
Codec ID : V_MPEGH/ISO/HEVC
Duration : 2 h 10 min
Bit rate : 2 001 kb/s
Width : 1 920 pixels
Height : 800 pixels
Display aspect ratio : 2.40:1
Frame rate mode : Constant
Frame rate : 24.000 FPS
Color space : YUV
Chroma subsampling : 4:2:0
Bit depth : 10 bits
Bits/(Pixel*Frame) : 0.054
Stream size : 1.83 GiB (82%)
Writing library : x265 3.3+4-rarbg-30eb4de83092:[Linux][GCC 8.3.1][64 bit] 10bit
Encoding settings : cpuid=1111039 / frame-threads=4 / wpp / no-pmode / no-pme / no-psnr / no-ssim / log-level=2 / input-csp=1 / input-res=1920x800 / interlace=0 / total-frames=0 / level-idc=0 / high-tier=1 / uhd-bd=0 / ref=4 / no-allow-non-conformance / no-repeat-headers / annexb / no-aud / no-hrd / info / hash=0 / no-temporal-layers / open-gop / min-keyint=24 / keyint=250 / gop-lookahead=0 / bframes=4 / b-adapt=2 / b-pyramid / bframe-bias=0 / rc-lookahead=25 / lookahead-slices=4 / scenecut=40 / hist-scenecut=0 / radl=0 / no-splice / no-intra-refresh / ctu=64 / min-cu-size=8 / rect / no-amp / max-tu-size=32 / tu-inter-depth=1 / tu-intra-depth=1 / limit-tu=0 / rdoq-level=2 / dynamic-rd=0.00 / no-ssim-rd / signhide / no-tskip / nr-intra=0 / nr-inter=0 / no-constrained-intra / strong-intra-smoothing / max-merge=3 / limit-refs=3 / limit-modes / me=3 / subme=3 / merange=57 / temporal-mvp / no-frame-dup / no-hme / weightp / no-weightb / no-analyze-src-pics / deblock=0:0 / no-sao / no-sao-non-deblock / rd=4 / selective-sao=0 / no-early-skip / rskip / no-fast-intra / no-tskip-fast / no-cu-lossless / no-b-intra / no-splitrd-skip / rdpenalty=0 / psy-rd=2.00 / psy-rdoq=1.00 / no-rd-refine / no-lossless / cbqpoffs=0 / crqpoffs=0 / rc=abr / bitrate=2000 / qcomp=0.60 / qpstep=4 / stats-write=0 / stats-read=2 / cplxblur=20.0 / qblur=0.5 / ipratio=1.40 / pbratio=1.30 / aq-mode=3 / aq-strength=1.00 / cutree / zone-count=0 / no-strict-cbr / qg-size=32 / no-rc-grain / qpmax=69 / qpmin=0 / no-const-vbv / sar=1 / overscan=0 / videoformat=5 / range=0 / colorprim=2 / transfer=2 / colormatrix=2 / chromaloc=0 / display-window=0 / cll=0,0 / min-luma=0 / max-luma=1023 / log2-max-poc-lsb=8 / vui-timing-info / vui-hrd-info / slices=1 / no-opt-qp-pps / no-opt-ref-list-length-pps / no-multi-pass-opt-rps / scenecut-bias=0.05 / hist-threshold=0.01 / no-opt-cu-delta-qp / no-aq-motion / no-hdr10 / no-hdr10-opt / no-dhdr10-opt / no-idr-recovery-sei / analysis-reuse-level=0 / analysis-save-reuse-level=0 / analysis-load-reuse-level=0 / scale-factor=0 / refine-intra=0 / refine-inter=0 / refine-mv=1 / refine-ctu-distortion=0 / no-limit-sao / ctu-info=0 / no-lowpass-dct / refine-analysis-type=0 / copy-pic=1 / max-ausize-factor=1.0 / no-dynamic-refine / no-single-sei / no-hevc-aq / no-svt / no-field / qp-adaptation-range=1.00 / no-scenecut-aware-qpconformance-window-offsets / right=0 / bottom=0
Language : English
Default : Yes
Forced : No

Audio
ID : 2
Format : AC-3
Format/Info : Audio Coding 3
Commercial name : Dolby Digital
Codec ID : A_AC3
Duration : 2 h 10 min
Bit rate mode : Constant
Bit rate : 448 kb/s
Channel(s) : 6 channels
Channel layout : L R C LFE Ls Rs
Sampling rate : 48.0 kHz
Frame rate : 31.250 FPS (1536 SPF)
Compression mode : Lossy
Stream size : 419 MiB (18%)
Title : DVO_[Pazl Voice]
Language : Russian
Service kind : Complete Main
Default : Yes
Forced : Yes

Text #1
ID : 3
Format : UTF-8
Codec ID : S_TEXT/UTF8
Codec ID/Info : UTF-8 Plain Text
Duration : 2 h 9 min
Bit rate : 77 b/s
Count of elements : 1756
Stream size : 73.2 KiB (0%)
Title : Russian
Language : Russian
Default : No
Forced : No

Text #2
ID : 4
Format : UTF-8
Codec ID : S_TEXT/UTF8
Codec ID/Info : UTF-8 Plain Text
Duration : 2 h 0 min
Bit rate : 2 b/s
Count of elements : 63
Stream size : 2.05 KiB (0%)
Title : Forced
Language : English
Default : No
Forced : No

Text #3
ID : 5
Format : UTF-8
Codec ID : S_TEXT/UTF8
Codec ID/Info : UTF-8 Plain Text
Duration : 2 h 9 min
Bit rate : 52 b/s
Count of elements : 1729
Stream size : 49.8 KiB (0%)
Title : English
Language : English
Default : No
Forced : No

Text #4
ID : 6
Format : UTF-8
Codec ID : S_TEXT/UTF8
Codec ID/Info : UTF-8 Plain Text
Duration : 2 h 6 min
Bit rate : 65 b/s
Count of elements : 1922
Stream size : 61.0 KiB (0%)
Title : English (SDH)
Language : English
Default : No
Forced : No

Text #5
ID : 7
Format : UTF-8
Codec ID : S_TEXT/UTF8
Codec ID/Info : UTF-8 Plain Text
Duration : 2 h 9 min
Bit rate : 79 b/s
Count of elements : 1746
Stream size : 75.4 KiB (0%)
Title : Ukrainian
Language : Ukrainian
Default : No
Forced : No

Menu
02:04:13.000 : en:End Credits

Этот торрент недоступен для скачивания без регистрации, однако доступен по публичной magnet-ссылке (источники с публичных трекеров). Перед использованием ссылки прочтите, пожалуйста Пользовательское соглашение, а также как можно дольше оставайтесь на раздаче! Для того, чтобы скачать сам торрент-файл (который видит больше источников), а также для того, чтобы поблагодарить релизера, вам необходимо зарегистрироваться. Если регистрироваться лень - вы можете также попробовать скачать релиз по нашим партнерским ссылкам ниже. Кроме того, зарегистрированным пользователям не показывается всплывающая реклама при скачивании.

[underver.se].t227653.torrent
Трекер: Зарегистрирован   [ 24.11.2021 22:22 ]  

Статус: проверено (by makkol at 24.11.2021 22:22)
Поблагодарили: пока никто не поблагодарил...
Тип торрента: публичный - доступные источники с открытых трекеров: 
Размер: 2,24 GB (занимает 0,51 DVDR, для записи нужно 1 болванка DVDR/RW)
 
 
Похожие темы
Форум Тема Автор Торрент Отв. Посл. сооб.
Зарубежное кино [DVDRip, Low-Res HDRip, и т.д.] Законы границ / Las leyes de la frontera / Laws of the Border (Даниэль Монсон) [2021 г., боевик, триллер, криминал, приключения, WEB-DLRip-AVC] DVO (Pazl Voice) + Eng + Sub makkol
25 | 1

0 | 314

6

24.11.2021 22:09

Зарубежное кино [HDDVDRip / BDRip / WEB-DL / HDTV 1080/720р] Законы границ / Las leyes de la frontera / Laws of the Border (Даниэль Монсон) [2021 г., боевик, триллер, криминал, приключения, WEB-DL 1080p] DVO (Pazl Voice) + Spa + Eng + Sub makkol
19 | 0

0 | 270

10

24.11.2021 22:17


Яндекс.Метрика powered by Sphinx


В Н И М А Н И Е
Сайт не распространяет и не хранит электронные версии произведений, а лишь бесплатно и без коммерческой выгоды (не требуя взамен платы,
SMS и т.д.) предоставляет доступ к создаваемому пользователями каталогу ссылок на торрент-файлы, которые содержат только списки хеш-сумм.
Убедительная просьба с жалобами обращаться напрямую к пользователю, разместившему торрент файл.

Вверх