Loading...
Error

Законы границ / Las leyes de la frontera / Laws of the Border (Даниэль Монсон) [2021 г., боевик, триллер, криминал, приключения, WEB-DLRip-AVC] DVO (Pazl Voice) + Eng + Sub

Статистика раздачи
Размер:  2,19 GB   |    Зарегистрирован:  13 дней   |    Скачан:  6 раз
Сидов:  2  |  36 KB/s  ]   Личеров:  0  |  0 KB/s  ]

* - сиды/пиры с внешних источников

   
 
Автор Сообщение

makkol Пол:Муж

24-Ноя-2021 22:09

Законы границ / Las leyes de la frontera / Laws of the Border


Год выпуска: 2021
Жанр: боевик, триллер, криминал, приключения
Производство: Испания [Atresmedia Cine, Ikiru Films S.L., Las Leyes De La Frontera, Terraza Films]
Режиссер: Даниэль Монсон
В ролях: Бегонья Варгас, Пеп Тосар, Даниэль Ибаньес, Маркос Руис, Чечу Сальгадо, Гильермо Лашерас, Карлос Овьедо, Синтия Гарсия, Диего Молина Гарау, Ксавьер Мартин, Хорхе Апарисио, Виктор Мануэль Пахарес
Сюжет фильма:
История берет свое начало летом 1978 года. Игнасио Каньясу, замкнутому ученику, 17 лет, он живет в Жироне. Когда он встречает Зарко и Тере, двух молодых преступников из китайского квартала, он оказывается погруженным в непреодолимую череду краж и грабежей, которая будет продолжаться все лето и навсегда изменит его жизнь. Это история лета, когда Игнасио вырос, постоянно нарушая границу между двумя мирами, пересекая грань между добром и злом, между справедливостью и беззаконием...

  • Мировая премьера: 25 сентября 2021


Качество видео: WEB-DLRip-AVC

Продолжительность: 02:10:36
Формат: MKV
Видео: MPEG-4 AVC, 1024x428 (2.40:1), 24.000 fps, 1500 kbps
Аудио #1: русский, любительский двухголосый закадровый (Pazl Voice), AC3 5.1, 48 kHz, 448 kbps
Аудио #2: английский, оригинал, AC3 5.1, 48 kHz, 448 kbps
Субтитры: русские, английские, украинские вшитые отключаемые

Релиз:

Код:

General
Unique ID : 113282314007591315434351944606066885806 (0x5539614C607FCFC960EAD57366A344AE)
Complete name : Laws of the Border.2021.DVO.Pazl.WEB-DLRip-AVC.[wolf1245.ExKinoRay].mkv
Format : Matroska
Format version : Version 4
File size : 2.19 GiB
Duration : 2 h 10 min
Overall bit rate : 2 396 kb/s
Movie name : Laws of the Border.2021.DVO.Pazl.WEB-DLRip-AVC.[wolf1245.ExKinoRay]
Encoded date : UTC 2021-11-24 19:21:55
Writing application : mkvmerge v63.0.0 ('Everything') 64-bit
Writing library : libebml v1.4.2 + libmatroska v1.6.4

Video
ID : 1
Format : AVC
Format/Info : Advanced Video Codec
Format profile : [email protected]
Format settings : CABAC / 12 Ref Frames
Format settings, CABAC : Yes
Format settings, Reference frames : 12 frames
Codec ID : V_MPEG4/ISO/AVC
Duration : 2 h 10 min
Bit rate : 1 500 kb/s
Width : 1 024 pixels
Height : 428 pixels
Display aspect ratio : 2.40:1
Frame rate mode : Constant
Frame rate : 24.000 FPS
Color space : YUV
Chroma subsampling : 4:2:0
Bit depth : 8 bits
Scan type : Progressive
Bits/(Pixel*Frame) : 0.143
Stream size : 1.37 GiB (63%)
Title : -=[wolf1245.ExKinoRay]=-
Writing library : x264 core 163 r3060 5db6aa6
Encoding settings : cabac=1 / ref=12 / deblock=1:-2:-2 / analyse=0x3:0x133 / me=umh / subme=10 / psy=1 / psy_rd=1.05:0.10 / mixed_ref=1 / me_range=48 / chroma_me=1 / trellis=2 / 8x8dct=1 / cqm=0 / deadzone=21,11 / fast_pskip=1 / chroma_qp_offset=-3 / threads=10 / lookahead_threads=2 / sliced_threads=0 / nr=0 / decimate=0 / interlaced=0 / bluray_compat=0 / constrained_intra=0 / bframes=10 / b_pyramid=2 / b_adapt=2 / b_bias=0 / direct=3 / weightb=1 / open_gop=0 / weightp=2 / keyint=240 / keyint_min=24 / scenecut=40 / intra_refresh=0 / rc_lookahead=60 / rc=2pass / mbtree=0 / bitrate=1500 / ratetol=1.0 / qcomp=0.60 / qpmin=0 / qpmax=69 / qpstep=4 / cplxblur=20.0 / qblur=0.5 / vbv_maxrate=50000 / vbv_bufsize=62500 / nal_hrd=none / filler=0 / ip_ratio=1.40 / pb_ratio=1.30 / aq=3:0.80
Default : Yes
Forced : No

Audio #1
ID : 2
Format : AC-3
Format/Info : Audio Coding 3
Commercial name : Dolby Digital
Codec ID : A_AC3
Duration : 2 h 10 min
Bit rate mode : Constant
Bit rate : 448 kb/s
Channel(s) : 6 channels
Channel layout : L R C LFE Ls Rs
Sampling rate : 48.0 kHz
Frame rate : 31.250 FPS (1536 SPF)
Compression mode : Lossy
Stream size : 419 MiB (19%)
Title : [DVO] Pazl Voice
Language : Russian
Service kind : Complete Main
Default : Yes
Forced : No

Audio #2
ID : 3
Format : AC-3
Format/Info : Audio Coding 3
Commercial name : Dolby Digital
Codec ID : A_AC3
Duration : 2 h 10 min
Bit rate mode : Constant
Bit rate : 448 kb/s
Channel(s) : 6 channels
Channel layout : L R C LFE Ls Rs
Sampling rate : 48.0 kHz
Frame rate : 31.250 FPS (1536 SPF)
Compression mode : Lossy
Stream size : 419 MiB (19%)
Title : Original
Language : English
Service kind : Complete Main
Default : Yes
Forced : No

Text #1
ID : 4
Format : UTF-8
Codec ID : S_TEXT/UTF8
Codec ID/Info : UTF-8 Plain Text
Duration : 2 h 9 min
Bit rate : 77 b/s
Count of elements : 1756
Stream size : 73.2 KiB (0%)
Title : Russian
Language : Russian
Default : No
Forced : No

Text #2
ID : 5
Format : UTF-8
Codec ID : S_TEXT/UTF8
Codec ID/Info : UTF-8 Plain Text
Duration : 2 h 9 min
Bit rate : 52 b/s
Count of elements : 1729
Stream size : 49.8 KiB (0%)
Title : English
Language : English
Default : No
Forced : No

Text #3
ID : 6
Format : UTF-8
Codec ID : S_TEXT/UTF8
Codec ID/Info : UTF-8 Plain Text
Duration : 2 h 6 min
Bit rate : 65 b/s
Count of elements : 1922
Stream size : 61.0 KiB (0%)
Title : English (SDH)
Language : English
Default : No
Forced : No

Text #4
ID : 7
Format : UTF-8
Codec ID : S_TEXT/UTF8
Codec ID/Info : UTF-8 Plain Text
Duration : 2 h 9 min
Bit rate : 79 b/s
Count of elements : 1746
Stream size : 75.4 KiB (0%)
Title : Ukrainian
Language : Ukrainian
Default : No
Forced : No

Этот торрент недоступен для скачивания без регистрации, однако доступен по публичной magnet-ссылке (источники с публичных трекеров). Перед использованием ссылки прочтите, пожалуйста Пользовательское соглашение, а также как можно дольше оставайтесь на раздаче! Для того, чтобы скачать сам торрент-файл (который видит больше источников), а также для того, чтобы поблагодарить релизера, вам необходимо зарегистрироваться. Если регистрироваться лень - вы можете также попробовать скачать релиз по нашим партнерским ссылкам ниже. Кроме того, зарегистрированным пользователям не показывается всплывающая реклама при скачивании.

[underver.se].t227651.torrent
Трекер: Зарегистрирован   [ 24.11.2021 22:09 ]  

Статус: проверено (by makkol at 24.11.2021 22:10)
Поблагодарили: пока никто не поблагодарил...
Тип торрента: публичный - доступные источники с открытых трекеров: 
Размер: 2,19 GB (занимает 1/2 DVDR, для записи нужно 1 болванка DVDR/RW)
 
 
Похожие темы
Форум Тема Автор Торрент Отв. Посл. сооб.
Зарубежное кино [HDDVDRip / BDRip / WEB-DL / HDTV 1080/720р] Законы границ / Las leyes de la frontera / Laws of the Border (Даниэль Монсон) [2021 г., боевик, триллер, криминал, приключения, WEB-DL 1080p] DVO (Pazl Voice) + Spa + Eng + Sub makkol
19 | 0

0 | 270

10

24.11.2021 22:17

Зарубежное кино [HDDVDRip / BDRip / WEB-DL / HDTV 1080/720р] Законы границ / Las leyes de la frontera / Laws of the Border (Даниэль Монсон) [2021 г., боевик, триллер, криминал, приключения, WEB-DL-HEVC 1080p] DVO (Pazl Voice) + Sub makkol
13 | 1

0 | 323

9

24.11.2021 22:22


Яндекс.Метрика powered by Sphinx


В Н И М А Н И Е
Сайт не распространяет и не хранит электронные версии произведений, а лишь бесплатно и без коммерческой выгоды (не требуя взамен платы,
SMS и т.д.) предоставляет доступ к создаваемому пользователями каталогу ссылок на торрент-файлы, которые содержат только списки хеш-сумм.
Убедительная просьба с жалобами обращаться напрямую к пользователю, разместившему торрент файл.

Вверх