Loading...
Error

Мальчик по имени Рождество / A Boy Called Christmas (Гил Кинан) [2021, Фэнтези, драма, приключения, семейный, WEB-DL 720p] Dub (Netflix) + Original (Eng) + Sub (Rus, Ukr, Eng)

Статистика раздачи
Размер:  4,14 GB   |    Зарегистрирован:  5 дней   |    Скачан:  4 раза
Сидов:  1  |  0 KB/s  ]   Личеров:  1  |  0 KB/s  ]

* - сиды/пиры с внешних источников

   
 
Автор Сообщение

tiptop Пол:Муж

24-Ноя-2021 14:40

Мальчик по имени Рождество / A Boy Called Christmas


Информация о фильме
Название: Мальчик по имени Рождество
Оригинальное название: A Boy Called Christmas
Год выхода: 2021
Жанр: Фэнтези, драма, приключения, семейный
Режиссер: Гил Кинан

В ролях: Кристен Уиг, Микил Хаусмен, Мэгги Смит, Зои Маргарет Коллетти, Салли Хокинс, Джим Бродбент, Тоби Джонс, Рюн Темт, Индика Уотсон, Синед Фелпс, Абиола Огунбийи

О фильме: Юный Николас, чтобы найти отца, уехавшего на поиски легендарной эльфийской деревни, отправляется на север, где его ждут необыкновенные приключения.

http://youtu.be/FP0tISfuYg8

Выпущено: Великобритания, Франция / Blueprint Pictures, Canal+ [fr], Ciné, Netflix, Studio Canal
Продолжительность: 01:45:22
Перевод: Дублированный Netflix

Файл
Качество: WEB-DL 720p
Формат: MKV
Видео: MPEG-4 AVC/H.264, 3504 Кбит/сек, 1280x534
Аудио #1: Русский: E-AC3, 6 ch, 640 Кбит/сек
Аудио #2: Русский: AC3, 6 ch, 640 Кбит/сек
Аудио #3: Английский: E-AC3, 6 ch, 768 Кбит/сек
Субтитры: русские, украинские, английские [вшитые отключаемые]
Общее
Уникальный идентификатор : 90278115811468557228361937675948125860 (0x43EAEEC29227BBF8D9A2380090E7EEA4)
Полное имя : F:\1.ФИЛЬМЫ\01. ФИЛЬМЫ\Мальчик по имени Рождество A Boy Called Christmas (2021)\Malchik po imeni Rozhdestvo A Boy Called Christmas (2021) WEB-DL 720p Netflix.mkv
Формат : Matroska
Версия формата : Version 4
Размер файла : 4,14 Гбайт
Продолжительность : 1 ч. 46 м.
Режим общего битрейта : Переменный
Общий поток : 5 553 Кбит/сек
Дата кодирования : UTC 2021-11-24 12:54:31
Программа кодирования : mkvmerge v63.0.0 ('Everything') 64-bit
Библиотека кодирования : libebml v1.4.2 + libmatroska v1.6.4

Видео
Идентификатор : 1
Формат : AVC
Формат/Информация : Advanced Video Codec
Профиль формата : [email protected]
Настройки формата : CABAC / 2 Ref Frames
Параметр CABAC формата : Да
Параметр RefFrames формата : 2 кадра
Идентификатор кодека : V_MPEG4/ISO/AVC
Продолжительность : 1 ч. 46 м.
Вид битрейта : Переменный
Битрейт : 3 504 Кбит/сек
Максимальный битрейт : 10,9 Мбит/сек
Ширина : 1 280 пикселей
Высота : 534 пикселя
Соотношение сторон : 2,40:1
Режим частоты кадров : Постоянный
Частота кадров : 24,000 кадра/сек
Цветовое пространство : YUV
Субдискретизация насыщенности : 4:2:0
Битовая глубина : 8 бит
Тип развёртки : Прогрессивная
Бит/(Пиксели*Кадры) : 0.214
Размер потока : 2,61 Гбайт (63%)
Заголовок : UK, France (Blueprint Pictures, Canal + [fr], Ciné, Netflix, Studio Canal)
Язык : English
Default : Да
Forced : Нет
Цветовой диапазон : Limited
Основные цвета : BT.709
Характеристики трансфера : BT.709
Коэффициенты матрицы : BT.709

Аудио #1
Идентификатор : 2
Формат : E-AC-3
Формат/Информация : Enhanced AC-3
Коммерческое название : Dolby Digital Plus
Идентификатор кодека : A_EAC3
Продолжительность : 1 ч. 46 м.
Вид битрейта : Постоянный
Битрейт : 640 Кбит/сек
Каналы : 6 каналов
Channel layout : L R C LFE Ls Rs
Частота : 48,0 КГц
Частота кадров : 31,250 кадров/сек (1536 SPF)
Метод сжатия : С потерями
Размер потока : 489 Мбайт (12%)
Заголовок : Dub (Netflix)
Язык : Russian
Service kind : Complete Main
Default : Да
Forced : Да

Аудио #2
Идентификатор : 3
Формат : AC-3
Формат/Информация : Audio Coding 3
Коммерческое название : Dolby Digital
Идентификатор кодека : A_AC3
Продолжительность : 1 ч. 46 м.
Вид битрейта : Постоянный
Битрейт : 640 Кбит/сек
Каналы : 6 каналов
Channel layout : L R C LFE Ls Rs
Частота : 48,0 КГц
Частота кадров : 31,250 кадров/сек (1536 SPF)
Метод сжатия : С потерями
Размер потока : 489 Мбайт (12%)
Заголовок : Dub (Netflix)
Язык : Russian
Service kind : Complete Main
Default : Нет
Forced : Нет

Аудио #3
Идентификатор : 4
Формат : E-AC-3 JOC
Формат/Информация : Enhanced AC-3 with Joint Object Coding
Коммерческое название : Dolby Digital Plus with Dolby Atmos
Идентификатор кодека : A_EAC3
Продолжительность : 1 ч. 46 м.
Вид битрейта : Постоянный
Битрейт : 768 Кбит/сек
Каналы : 6 каналов
Channel layout : L R C LFE Ls Rs
Частота : 48,0 КГц
Частота кадров : 31,250 кадров/сек (1536 SPF)
Метод сжатия : С потерями
Размер потока : 586 Мбайт (14%)
Заголовок : Original (English)
Язык : English
Service kind : Complete Main
Default : Нет
Forced : Нет
Complexity index : 16
Number of dynamic objects : 15
Bed channel count : 1 канал
Bed channel configuration : LFE

Текст #1
Идентификатор : 5
Формат : UTF-8
Идентификатор кодека : S_TEXT/UTF8
Идентификатор кодека/Информация : UTF-8 Plain Text
Продолжительность : 1 ч. 42 м.
Битрейт : 78 бит/сек
Count of elements : 1212
Размер потока : 59,1 Кбайт (0%)
Заголовок : Full
Язык : Russian
Default : Нет
Forced : Нет

Текст #2
Идентификатор : 6
Формат : UTF-8
Идентификатор кодека : S_TEXT/UTF8
Идентификатор кодека/Информация : UTF-8 Plain Text
Продолжительность : 1 ч. 42 м.
Битрейт : 0 бит/сек
Count of elements : 6
Размер потока : 309 байт (0%)
Заголовок : Forced
Язык : Russian
Default : Да
Forced : Да

Текст #3
Идентификатор : 7
Формат : UTF-8
Идентификатор кодека : S_TEXT/UTF8
Идентификатор кодека/Информация : UTF-8 Plain Text
Продолжительность : 1 ч. 42 м.
Битрейт : 78 бит/сек
Count of elements : 1178
Размер потока : 59,3 Кбайт (0%)
Язык : Ukrainian
Default : Нет
Forced : Нет

Текст #4
Идентификатор : 8
Формат : UTF-8
Идентификатор кодека : S_TEXT/UTF8
Идентификатор кодека/Информация : UTF-8 Plain Text
Продолжительность : 1 ч. 41 м.
Битрейт : 67 бит/сек
Count of elements : 1638
Размер потока : 50,3 Кбайт (0%)
Заголовок : English (SDH)
Язык : English
Default : Нет
Forced : Нет

Этот торрент недоступен для скачивания без регистрации, однако доступен по публичной magnet-ссылке (источники с публичных трекеров). Перед использованием ссылки прочтите, пожалуйста Пользовательское соглашение, а также как можно дольше оставайтесь на раздаче! Для того, чтобы скачать сам торрент-файл (который видит больше источников), а также для того, чтобы поблагодарить релизера, вам необходимо зарегистрироваться. Если регистрироваться лень - вы можете также попробовать скачать релиз по нашим партнерским ссылкам ниже. Кроме того, зарегистрированным пользователям не показывается всплывающая реклама при скачивании.

[underver.se].t227646.torrent
Трекер: Зарегистрирован   [ 24.11.2021 14:40 ]  

Статус: проверено (by tiptop at 24.11.2021 14:40)
Поблагодарили: пока никто не поблагодарил...
Тип торрента: публичный - доступные источники с открытых трекеров: 
Размер: 4,14 GB (занимает 0,95 DVDR, для записи нужно 1 болванка DVDR/RW)
 
 
Похожие темы
Форум Тема Автор Торрент Отв. Посл. сооб.
Зарубежное кино [DVDRip, Low-Res HDRip, и т.д.] Мальчик по имени Парусник / A Boy Called Sailboat (Камерон Наджент / Cameron Nugent) [2018 г., драма, комедия, семейный, WEB-DLRip] MVO (HDRezka Studio) 90ytr90
1 | 0

0 | 576

4

03.05.2019 10:23

Зарубежное кино [DVDRip, Low-Res HDRip, и т.д.] Мальчик по имени Парусник / A Boy Called Sailboat (Камерон Наджент) [2018, Драма, комедия, семейный, BDRip] MVO (HDRezka Studio) + Sub (Rus/Eng) Konin
2 | 1

0 | 371

5

08.06.2021 19:12

Зарубежное кино [DVDRip, Low-Res HDRip, и т.д.] Мальчик по имени Рождество / A Boy Called Christmas (Гил Кинан) [2021 г., фэнтези, драма, приключения, семейный, WEB-DLRip] Dub (Пифагор) + Sub makkol
35 | 2

0 | 264

8

24.11.2021 11:16

Зарубежное кино [DVD / HDDVD / BD / Remux] Мальчик по имени Парусник / A Boy Called Sailboat (Камерон Наджент) [2018 г., драма, комедия, семейный, BD-Remux 1080p] Rus (MVO HDRezka Studio) + Ukr (MVO АМС) + Original makkol
1 | 0

0 | 383

1

09.06.2021 22:56

Зарубежное кино [HDDVDRip / BDRip / WEB-DL / HDTV 1080/720р] Мальчик по имени Парусник / A Boy Called Sailboat (Камерон Наджент / Cameron Nugent) [2018 г., драма, комедия, семейный, WEB-DL 1080p] MVO (HDRezka Studio) + Original (Eng) + hardsub (Eng) 90ytr90
1 | 0

0 | 428

9

01.05.2019 18:11

Зарубежное кино [HDDVDRip / BDRip / WEB-DL / HDTV 1080/720р] Мальчик по имени Парусник / A Boy Called Sailboat (Камерон Наджент) [2018 г., драма, комедия, семейный, BDRip 720p] Rus (MVO HDRezka Studio) + Ukr (MVO АМС) + Original makkol
1 | 0

0 | 353

1

09.06.2021 22:50

Зарубежное кино [HDDVDRip / BDRip / WEB-DL / HDTV 1080/720р] Мальчик по имени Рождество / A Boy Called Christmas (Гил Кинан) [2021 г., фэнтези, драма, приключения, семейный, WEB-DL 1080p] Dub (Пифагор) + Original + Sub makkol
49 | 8

0 | 268

13

24.11.2021 11:23

Зарубежное кино [HDDVDRip / BDRip / WEB-DL / HDTV 1080/720р] Мальчик по имени Рождество / A Boy Called Christmas (Гил Кинан) [2021 г., фэнтези, драма, приключения, семейный, WEB-DL-HEVC 1080p HDR] Dub (Пифагор) + Original + Sub makkol
14 | 13

0 | 143

11

25.11.2021 22:21


Яндекс.Метрика powered by Sphinx


В Н И М А Н И Е
Сайт не распространяет и не хранит электронные версии произведений, а лишь бесплатно и без коммерческой выгоды (не требуя взамен платы,
SMS и т.д.) предоставляет доступ к создаваемому пользователями каталогу ссылок на торрент-файлы, которые содержат только списки хеш-сумм.
Убедительная просьба с жалобами обращаться напрямую к пользователю, разместившему торрент файл.

Вверх